#TITLE:Kimagura Princess;
#SUBTITLE:Expi3nze & sdo;
#ARTIST:xxx;
#TITLETRANSLIT:;
#SUBTITLETRANSLIT:;
#ARTISTTRANSLIT:;
#CREDIT:;
#BANNER:bn.png;
#BACKGROUND:bg.png;
#LYRICSPATH:;
#CDTITLE:cdtitle.png;
#MUSIC:Kimagura Princess.mp3;
#OFFSET:-0.040;
#SAMPLESTART:66.309;
#SAMPLELENGTH:28.209;
#SELECTABLE:YES;
#BPMS:0.000=134.003,1.000=133.997,2.000=134.003,3.000=133.997,4.000=134.003,5.000=133.997,6.000=134.003,7.000=133.997,8.000=134.003,9.000=133.997,10.000=134.003,11.000=133.997,13.000=134.003,14.000=133.997,15.000=134.003,16.000=133.997,17.000=134.003,18.000=133.997,19.000=134.003,20.000=133.997,21.000=134.003,22.000=133.997,23.000=134.003,24.000=133.997,26.000=134.003,27.000=133.997,28.000=134.003,29.000=133.997,30.000=134.003,31.000=133.997,32.000=134.003,33.000=133.997,34.000=134.003,35.000=133.997,36.000=134.003,37.000=133.997,39.000=134.003,40.000=133.997,41.000=134.003,42.000=133.997,43.000=134.003,44.000=133.997,45.000=134.003,46.000=133.997,47.000=134.003,48.000=133.997,49.000=134.003,50.000=133.997,52.000=134.003,53.000=133.997,54.000=134.003,55.000=133.997,56.000=134.003,57.000=133.997,58.000=134.003,59.000=133.997,60.000=134.003,61.000=133.997,62.000=134.003,63.000=133.997,65.000=134.003,66.000=133.997,67.000=134.003,68.000=133.997,69.000=134.003,70.000=133.997,71.000=134.003,72.000=133.997,73.000=134.003,74.000=133.997,75.000=134.003,76.000=133.997,78.000=134.003,79.000=133.997,80.000=134.003,81.000=133.997,82.000=134.003,83.000=133.997,84.000=134.003,85.000=133.997,86.000=134.003,87.000=133.997,88.000=134.003,89.000=133.997,91.000=134.003,92.000=133.997,93.000=134.003,94.000=133.997,95.000=134.003,96.000=133.997,97.000=134.003,98.000=133.997,99.000=134.003,100.000=133.997,101.000=134.003,102.000=133.997,104.000=134.003,105.000=133.997,106.000=134.003,107.000=133.997,108.000=134.003,109.000=133.997,110.000=134.003,111.000=133.997,112.000=134.003,113.000=133.997,114.000=134.003,115.000=133.997,117.000=134.003,118.000=133.997,119.000=134.003,120.000=133.997,121.000=134.003,122.000=133.997,123.000=134.003,124.000=133.997,125.000=134.003,126.000=133.997,127.000=134.003,128.000=133.997,130.000=134.003,131.000=133.997,132.000=134.003,133.000=133.997,134.000=134.003,135.000=133.997,136.000=134.003,137.000=133.997,138.000=134.003,139.000=133.997,140.000=134.003,141.000=133.997,143.000=134.003,144.000=133.997,145.000=134.003,146.000=133.997,147.000=134.003,148.000=133.997,149.000=134.003,150.000=133.997,151.000=134.003,152.000=133.997,153.000=134.003,154.000=133.997,156.000=134.003,157.000=133.997,158.000=134.003,159.000=133.997,160.000=134.003,161.000=133.997,162.000=134.003,163.000=133.997,164.000=134.003,165.000=133.997,166.000=134.003,167.000=133.997,169.000=134.003,170.000=133.997,171.000=134.003,172.000=133.997,173.000=134.003,174.000=133.997,175.000=134.003,176.000=133.997,177.000=134.003,178.000=133.997,179.000=134.003,180.000=133.997,182.000=134.003,183.000=133.997,184.000=134.003,185.000=133.997,186.000=134.003,187.000=133.997,188.000=134.003,189.000=133.997,190.000=134.003,191.000=133.997,192.000=134.003,193.000=133.997,195.000=134.003,196.000=133.997,197.000=134.003,198.000=133.997,199.000=134.003,200.000=133.997,201.000=134.003,202.000=133.997,203.000=134.003,204.000=133.997,206.000=134.003,207.000=133.997,208.000=134.003,209.000=133.997,210.000=134.003,211.000=133.997,212.000=134.003,213.000=133.997,214.000=134.003,215.000=133.997,216.000=134.003,217.000=133.997,219.000=134.003,220.000=133.997,221.000=134.003,222.000=133.997,223.000=134.003,224.000=133.997,225.000=134.003,226.000=133.997,227.000=134.003,228.000=133.997,229.000=134.003,230.000=133.997,232.000=134.003,233.000=133.997,234.000=134.003,235.000=133.997,236.000=134.003,237.000=133.997,238.000=134.003,239.000=133.997,240.000=134.003,241.000=133.997,242.000=134.003,243.000=133.997,245.000=134.003,246.000=133.997,247.000=134.003,248.000=133.997,249.000=134.003,250.000=133.997,251.000=134.003,252.000=133.997,253.000=134.003,254.000=133.997,255.000=134.003,256.000=133.997,258.000=134.003,259.000=133.997,260.000=134.003,261.000=133.997,262.000=134.003,263.000=133.997,264.000=134.003,265.000=133.997,266.000=134.003,267.000=133.997,268.000=134.003,269.000=133.997,271.000=134.003,272.000=133.997,273.000=134.003,274.000=133.997,275.000=134.003,276.000=133.997,277.000=134.003,278.000=133.997,279.000=134.003,280.000=133.997,281.000=134.003,282.000=133.997,284.000=134.003,285.000=133.997,286.000=134.003,287.000=133.997,288.000=134.003,289.000=133.997,290.000=134.003,291.000=133.997,292.000=134.003,293.000=133.997,294.000=134.003,295.000=133.997,297.000=134.003,298.000=133.997,299.000=134.003,300.000=133.997,301.000=134.003,302.000=133.997,303.000=134.003,304.000=133.997,305.000=134.003,306.000=133.997,307.000=134.003,308.000=133.997,310.000=134.003,311.000=133.997,312.000=134.003,313.000=133.997,314.000=134.003,315.000=133.997,316.000=134.003,317.000=133.997,318.000=134.003,319.000=133.997,320.000=134.003,321.000=133.997,323.000=134.003,324.000=133.997,325.000=134.003,326.000=133.997,327.000=134.003,328.000=133.997,329.000=134.003,330.000=133.997,331.000=134.003,332.000=133.997,333.000=134.003,334.000=133.997,336.000=134.003,337.000=133.997,338.000=134.003,339.000=133.997,340.000=134.003,341.000=133.997,342.000=134.003,343.000=133.997,344.000=134.003,345.000=133.997,346.000=134.003,347.000=133.997,349.000=134.003,350.000=133.997,351.000=134.003,352.000=133.997,353.000=134.003,354.000=133.997,355.000=134.003,356.000=133.997,357.000=134.003,358.000=133.997,359.000=134.003;
#STOPS:;
#BGCHANGES:;
// cache tags:
#FIRSTBEAT:12.000;
#LASTBEAT:360.000;
#SONGFILENAME:Songs/Super Dancer Online/Kimagure Princess/Kimagura Princess.sm;
#HASMUSIC:1;
#HASBANNER:1;
#MUSICLENGTH:161.592;
// end cache tags

//---------------dance-single - ----------------
#NOTES:
     dance-single:
     :
     Hard:
     18:
     0.956,1.000,1.000,0.359,0.569,760.000,261.000,58.000,0.000,70.000:
0000
0000
0000
0000
,
0000
0000
0000
0000
,
0000
0000
0000
0000
,
2000
0000
0000
0000
0000
0000
0000
0000
0000
0000
0000
0000
0000
0000
0010
0001
,
3110
0000
0100
0001
0010
0100
0010
0000
0101
0000
1010
0000
0110
0000
0010
0000
,
1100
0000
1000
0000
0010
0100
0010
1000
0101
0000
1010
0000
0110
0000
0100
0000
,
0011
0000
0000
0011
0000
0000
0011
0000
1100
0000
0000
1100
0000
0000
1100
0000
,
1001
0200
2302
0000
,
3103
0010
0100
1000
0001
0010
1000
0000
1100
0000
0011
0000
0011
0000
1000
0000
,
0100
0010
1000
0001
0100
0100
0001
0000
1010
0000
0101
0000
0110
0000
0010
0000
,
0001
0010
0100
1000
0010
0010
1000
0000
0101
0000
1010
0000
1100
0000
0011
0000
,
1001
0000
0100
0010
1001
0000
0110
0000
0100
0000
0110
0000
0120
0000
0000
0000
,
1030
0100
0010
0001
0100
0100
0010
0000
1100
0000
0011
0000
0011
0000
1000
0000
,
0001
0010
0100
1000
0001
0001
0100
0000
1010
0000
0101
0000
1100
0000
1000
0000
,
0001
0010
0100
1000
0010
0010
0100
0000
1001
0000
0110
0000
1001
0000
0110
0000
,
1100
0000
0000
1100
0011
0000
1100
0000
2002
0000
0000
0000
3003
0000
0000
0000
,
1000
0001
1100
0001
1000
0001
1100
0001
,
1000
0000
0001
0000
1100
0000
0001
0000
1000
0000
0001
0000
1100
0000
0010
0001
,
1000
0000
0001
0000
1100
0000
0001
0000
1000
0000
0010
0001
1100
0000
0011
0000
,
1001
0000
1001
0000
1001
1000
0011
1000
,
0001
0010
0100
1000
0010
0001
0100
0000
0011
0000
1100
0000
1100
0000
0001
0000
,
1000
0100
0010
0001
0100
1000
0010
0000
1100
0000
0011
0000
0011
0000
1000
0000
,
0110
0100
0011
1000
0010
0100
0011
1000
,
0010
0000
0100
0000
0011
0000
1000
0000
0010
0000
0100
0000
0011
0000
1000
0100
,
0010
0000
0100
0000
0011
0000
1000
0000
0010
0000
0100
0010
1100
0000
0011
0000
,
1001
0000
1001
0000
1001
1000
0011
1000
,
0001
0010
0100
1000
0010
0001
0100
0000
1010
0000
0101
0000
0011
0000
1000
0000
,
1000
0100
0010
0001
0100
0010
1000
0000
0101
0000
1010
0000
1100
0000
0001
0000
,
0001
0010
0100
1000
0010
0100
0010
0000
0101
0000
1010
0000
0101
0000
1010
0000
,
0110
0000
0000
0110
1001
0000
1001
0000
0220
0000
0000
0000
0330
0000
0000
0000
,
0100
0010
1100
0001
0100
0010
1100
0001
,
0100
0000
0001
0000
0010
0010
1000
0000
0101
0000
1010
0000
1100
0000
0001
0010
,
1001
0000
0100
0010
1000
0010
0100
0010
1100
0000
0000
1100
0000
0000
0001
0010
,
1001
0000
0100
0010
1000
0001
0010
0100
0011
0000
0000
0011
0000
0000
1000
0100
,
1001
0000
0010
0100
0001
0100
0010
0001
1100
0000
0011
0000
1100
0000
0011
0000
,
0011
0000
0000
0000
0000
0000
0000
0000
0000
0001
0000
0000
1010
0000
0000
0000
0000
0000
0000
0000
0000
0000
0000
0000
1100
0000
0000
0000
0010
0000
0000
0000
0100
0000
0000
0000
0011
0000
0000
0000
1000
0000
0000
0000
0100
0000
0000
0000
,
2001
0000
0100
0010
0001
0010
0100
0010
0100
0010
0001
0100
0001
0100
0010
0100
,
3012
0100
1100
0010
1203
0010
1001
1000
,
0321
0000
1000
0000
1001
0000
1000
0000
0001
0000
0130
1000
0011
0100
1000
0100
,
2001
0100
0011
0100
3012
0100
1100
0010
,
2103
0000
3210
0000
0321
0000
1032
1000
,
1203
0000
0010
0000
1001
0000
1000
0000
1000
0000
0301
0010
0001
0010
0100
1000
,
1020
0001
1100
0001
1000
0001
1100
0001
,
1031
0000
0110
0000
1000
0100
0001
0000
0010
0000
0100
0010
1000
0100
0010
0001
,
2100
0000
0000
0001
0000
0000
0100
0000
3012
0000
0000
0100
0000
0000
1000
0000
,
1203
0010
0011
1000
0321
1000
1100
0001
,
2130
0000
0001
0000
0011
0000
0100
0000
0001
0000
3100
0010
0001
0010
0100
1000
,
0012
1000
1100
0010
1203
0010
0011
1000
,
2301
0000
3210
0000
1320
0000
0132
1000
,
2103
0000
0010
0000
0011
0000
0100
0000
0001
0000
3100
0010
0001
0010
0100
1000
,
0012
0000
1000
0000
1100
0000
0010
0000
1000
0000
0010
0010
2103
0000
0010
0010
,
3101
0000
0000
0000
0000
0000
0000
0000
0000
1010
0000
0000
0000
0000
0000
0000
0000
0000
0001
0000
0000
0001
0000
0000
1100
0000
0000
0000
0011
0000
0000
0000
1100
0000
0000
0000
1100
0000
0000
0000
0011
0000
0000
0000
1100
0000
0000
0000
,
1021
0000
0000
0000
0000
0000
0000
0000
0000
0000
0000
0000
0000
0000
0100
1000
,
1032
0000
0000
1000
0000
0000
1000
0000
1203
0010
1000
0010
1000
0000
1301
0000
,
0011
0000
0001
0000
1000
0100
0010
0000
0101
0000
1010
0000
0110
0000
0000
0100
,
1001
0000
0000
0002
0000
0000
0000
0000
0203
0000
0000
0000
0000
0000
0000
0000
,
1301
0000
0010
0100
1001
0000
0010
0100
0011
0000
1000
0100
0110
0000
0000
0000
,
1100
0000
0000
1000
0101
0000
1010
0000
0101
0000
0001
0000
1010
0000
1000
0000
,
0110
0000
0100
0000
0001
0010
0100
0000
0011
0000
1100
0000
1001
0000
0000
0001
,
1100
0000
1000
0000
0001
0000
0001
0000
0100
0010
0100
0010
0100
0010
0100
0010
,
1001
0000
0100
0010
0101
0000
1010
0000
0011
0000
1001
0000
1100
0000
1001
0000
,
2012
0100
0100
0010
0100
0010
0010
0100
0010
0100
0010
0100
0010
0010
0100
0010
,
3203
0000
0000
0000
0000
0000
0000
0000
0000
0000
0000
0000
0320
0000
1000
0100
,
1031
1000
0010
0100
0011
0000
0101
1010
,
0110
0100
0010
1000
0100
0010
0001
1000
,
0010
0100
0010
0001
1000
0010
0001
0100
,
0010
0100
0100
0100
0001
0100
0100
0100
0010
1000
1000
1000
0001
1000
1000
1000
,
0021
0000
0100
0000
1000
0000
0100
0000
1030
0001
0010
0100
0010
1000
0001
0000
,
0210
0000
0001
0000
1000
0000
0001
0001
1001
0000
0000
0000
0310
0000
0001
0000
,
2001
0000
0000
0000
0000
0000
0000
0000
3000
0000
0010
0100
0001
0010
0100
1000
,
0011
0000
0000
0011
0000
0000
1100
0000
1100
0000
0000
1100
0000
0000
0011
0000
,
1000
0100
0010
0001
1200
0000
0000
0000
0321
0000
0000
0000
1001
0000
0000
0000
,
1032
0000
0010
0000
1100
0000
0010
0000
1000
0000
1003
0100
1000
0100
0010
0001
,
0110
0000
0000
0000
0001
0000
0000
0110
0000
0000
0110
0000
1001
0000
0110
0000
,
1001
0000
1001
0001
1001
0000
1001
0000
,
0210
0000
1000
0000
0011
0000
1000
0000
0010
0000
1300
0010
0001
0010
0100
1000
,
1002
0000
0010
0000
1100
0000
0010
0000
1003
0000
0010
0000
0010
0000
0100
0100
,
1001
0000
0000
0000
0000
0000
0000
0000
0000
1001
0000
0000
0000
0000
0000
0000
0000
0000
0000
0000
0000
0000
0000
0000
0011
0000
0000
0000
1100
0000
0000
0000
0011
0000
0000
0000
1100
0000
0000
0000
1100
0000
0000
0000
0011
0000
0000
0000
,
0210
0300
2000
0000
,
3010
0000
0100
0000
0010
0000
0001
0000
1000
0000
0010
0100
0001
0000
1000
0000
,
0100
0010
1000
0001
0100
0010
0210
0000
0000
2300
0000
0000
,
3001
0010
0100
0001
1000
0100
0010
0000
0101
0000
1010
0000
0110
0000
0100
0000
,
0010
0100
1000
0001
0100
0010
0100
0000
0010
0000
1000
0000
0001
0000
0000
0000
,
1000
0100
0010
0001
0100
0010
1000
0000
0101
0000
1010
0000
0101
0000
1010
0000
,
0110
0000
0100
0010
0101
0000
1010
0000
0100
0000
0110
0000
0110
0000
0010
0000
,
0001
0010
0100
1000
0010
0100
0001
0000
1100
0000
0011
0000
0011
0000
1000
0000
,
0100
0010
0001
0100
0010
1000
0100
0000
0010
0000
0100
0000
0010
0000
0000
0000
,
0001
0010
0100
1000
0010
0100
0001
0000
1010
0000
0101
0000
1010
0000
0101
0000
,
0110
0000
0000
0110
1001
0000
0110
0000
0110
0000
0000
0000
2002
0000
0000
0000
,
0000
0000
0000
0000
,
3003
0000
0000
0000
;
